Community

Forum

Taylor Hawkins New Stuff ??

Roberto SaezRoberto Saez M.I.A.
edited April 2010 in General Discussion
http://www.youtube.com/watch?v=xtWNjqtn-Vo
http://www.youtube.com/watch?v=iBb-ohcEFsE

I never see this,he play about one month ago :O!!! ....good sound really..
Another info,the new album will release at April 19,with the special collaboration on the album of : Brian May,Roger Taylor,Dave Grohl & Elliot Easton.

Comments

  • Hugo BerthierHugo Berthier Recording History Freak
    edited February 2010
    Woaoaow seems to fit perfect with the new live website coming very soon.
    Like FFL or LN, or TCV live, I'm finishing the "Taylor Hawkins Live" website.

    Edit : Where did you get the info of the album release date ?
  • Diego CastanhoDiego Castanho February Star
    edited February 2010
  • Hugo BerthierHugo Berthier Recording History Freak
    edited February 2010
    Yeah, there are some pro-shots over Youtube.
    This is from "Last Call w/ Carlson Daily" TV Show, they played Louise & Get Up
    Unfortunately, those bastards cuts the end of Get Up.

    But, it is really cool to have some nice sound of Coattail Riders live perfomance ;)
  • Roberto SaezRoberto Saez M.I.A.
    edited February 2010
    Hugo Bliss wrote: »
    Woaoaow seems to fit perfect with the new live website coming very soon.
    Like FFL or LN, or TCV live, I'm finishing the "Taylor Hawkins Live" website.

    Edit : Where did you get the info of the album release date ?

    http://www.nme.com/news/foo-fighters/49828

    Yeah,but from old songs,not new stuff.
  • Hugo BerthierHugo Berthier Recording History Freak
    edited February 2010

    Those songs aren't by the Coattail Riders, these are from Gannin's solo album (the guitarist of TCR), which gonna be release.
    Gannin show some guitars techniques at the NAMM Show, and then he played some of his own stuff, with Taylor and Chris.

    By the way Taylor appeared as a guest on some songs of this album "Not From Here" : http://itunes.apple.com/us/album/not-from-here/id355469613
  • edited February 2010

    That's Gannin's YouTube page. Would it be a good idea to e-mail him to see if he'll send us the original MP4's for the Coattail Rider stuff?
  • Hugo BerthierHugo Berthier Recording History Freak
    edited March 2010
    PLEASE someone captured it, I can't from my own timezone.
  • Simon KilmoreSimon Kilmore Skinny as a spit pan
    edited March 2010
    If i'm still awake then (which is likely with my insomnia) i'll try and capture it.
  • edited March 2010
    Did you capture it, Simon? I forgot to watch it.
  • Simon KilmoreSimon Kilmore Skinny as a spit pan
    edited March 2010
    Did you capture it, Simon? I forgot to watch it.

    Sorry no it didn't start until 4am here and I went to bed about 3am, I had to be up for 9:30am.
  • edited March 2010
    Gannin Arnold with Taylor Hawkins, Chris Chaney and Drew Hester Rebroadcast.

    http://www.drumchannel.com/

    This Friday!
  • Roberto SaezRoberto Saez M.I.A.
    edited March 2010
    Looks this,interesting jam of Chad Smith,TAYLOR HAWKINS and many other drummers....
  • edited March 2010
    Also The Chad Smith show is worth to take a look at, seven part show with a lot of fun talk.
  • Hugo BerthierHugo Berthier Recording History Freak
    edited March 2010
    Gannin Arnold with Taylor Hawkins, Chris Chaney and Drew Hester Rebroadcast.

    http://www.drumchannel.com/

    This Friday!

    Many thanks :)

    Like the the first broadcast, I suppose I'll be sucked with the timezone, any hopes of a capture by someone here ?
  • edited March 2010
    Rebroadcast is up now.

    Can anybody try to capture it? Would be nice to have on the hard drive.
  • Simon KilmoreSimon Kilmore Skinny as a spit pan
    edited March 2010
    Capturing now for you.
  • Simon KilmoreSimon Kilmore Skinny as a spit pan
    edited March 2010
    Capturing now for you.
  • Hugo BerthierHugo Berthier Recording History Freak
    edited March 2010
    I've captured the main cam mix, and all the 4 separate cams, maybe yours is better quality, we should compare Simon.

    I'll post caps and spechs of my capture.
  • Simon KilmoreSimon Kilmore Skinny as a spit pan
    edited March 2010
    I only ripped the main video, direct rip of the FLV with Replay Media Catcher, and the file is 570MB. I think I ran the highest quality on the site. Obviously if you've ripped the FLV directly as well the quality should be identical.
    Video
    Format : VP6
    Duration : 1h 34mn
    Bit rate : 725 Kbps
    Width : 480 pixels
    Height : 270 pixels
    Display aspect ratio : 16:9
    Frame rate : 30.000 fps
    Bits/(Pixel*Frame) : 0.187
    Stream size : 493 MiB (84%)

    Audio
    Format : MPEG Audio
    Format version : Version 1
    Format profile : Layer 3
    Mode : Joint stereo
    Duration : 1h 34mn
    Bit rate mode : Constant
    Bit rate : 128 Kbps
    Channel(s) : 2 channels
    Sampling rate : 44.1 KHz
    Resolution : 16 bits
    Stream size : 89.3 MiB (15%)
  • Brad CollinsBrad Collins Collaborator & Super Moderator
    edited April 2010
    Taylor is going to be on Rockline Monday April 5th. Can anyone catch an FM capture of this? There is no radio station close to me believe it or not that broadcasts Rockline. I know people aren't big on having the best quality interviews but I would rather have an FM capture than a capture of this from the web. PM me if you can help me out. I can't believe in Los Angeles nobody carries this program. It's been around for almost 30 years!

    Check out their website at: www.rocklineradio.com/affiliates.php

    The show is carried on stations in most major and secondary U.S. markets.
Sign In or Register to comment.

Howdy, Stranger!

It looks like you're new here. If you want to get involved, click one of these buttons!